Supergirl S03E06 HDTV x264-SVA[eztv] mkv | 6.lxv010 | Luke Cage Türkçe Dublajlı

Movies - Other

Tubelight 2017 720p Esub DVD Hindi GOPISAHI mkv

  • Download 5x Faster
  • Download torrent
  • Direct Download
  • Rate this torrent +  |  -


Torrent info

Name:Tubelight 2017 720p Esub DVD Hindi GOPISAHI mkv

Total Size: 916.19 MB

Magnet: Magnet Link

Seeds: 1

Leechers: 10

Stream: Watch Full Movie @ Movie4u

Last Updated: 2017-12-07 05:20:36 (Update Now)

Torrent added: 2017-12-07 05:20:34



VPN For Torrents

Torrent Files List


Tubelight 2017 720p Esub DVD Hindi GOPISAHI.mkv (Size: 916.19 MB) (Files: 1)

 Tubelight 2017 720p Esub DVD Hindi GOPISAHI.mkv

916.19 MB
 

tracker

leech seeds
 

Torrent description

http://lookimg.com/images/2017/12/07/kUBbW.jpg
Format                         : Matroska
Format version                 : Version 4 / Version 2
File size                      : 916 MiB
Duration                       : 2 h 16 min
Overall bit rate               : 941 kb/s
Movie name                     : Tubelight 2017 GOPISAHI

Video
Format                         : AVC
Codec ID                       : V_MPEG4/ISO/AVC
Duration                       : 2 h 16 min
Bit rate                       : 850 kb/s
Width                          : 1 280 pixels
Height                         : 544 pixels
Display aspect ratio           : 2.35:1
Frame rate mode                : Constant
Frame rate                     : 23.976 (24000/1001) FPS
Stream size                    : 828 MiB (90%)
Writing library                : x264 core 152 r2851 ba24899

Audio
Format                         : AAC
Duration                       : 2 h 16 min
Bit rate                       : 88.7 kb/s
Channel(s)                     : 6 channels
Channel positions              : Front: L C R, Side: L R, LFE
Sampling rate                  : 44.1 kHz
Frame rate                     : 43.066 FPS (1024 SPF)
Stream size                    : 86.4 MiB (9%)
Language                       : Hindi


Text
Language                       : English
http://lookimg.com/images/2017/12/07/kUg8r.jpg
http://lookimg.com/images/2017/12/07/kUO9h.jpg
http://lookimg.com/images/2017/12/07/kUkXj.jpg

related torrents

Torrent name

health leech seeds Size
 


comments (0)

Main Menu

 

script data-cfasync="false" src="//d2ghscazvn398x.cloudfront.net/?cshgd=690275">