Shoot the Messenger | Rillington Place | The Walking Dead

Movies - Other

Shattered 2017 HDRip XviD AC3

  • Download 5x Faster
  • Download torrent
  • Direct Download
  • Rate this torrent +  |  -
Shattered 2017 HDRip XviD AC3

Download FREE And Anonymously


Torrent info

Name:Shattered 2017 HDRip XviD AC3

Total Size: 957.13 MB

Magnet: Magnet Link

Seeds: 4

Leechers: 13

Stream: Watch Full Movie @ Movie4u

Last Updated: 2017-12-07 06:40:46 (Update Now)

Torrent added: 2017-12-07 06:40:44



VPN For Torrents

Torrent Files List


1.jpg (Size: 957.13 MB) (Files: 3)

 1.jpg

32.00 KB

 Sample.ts

9.84 MB

 Shattered.2017.HDRip.XviD.AC3.mp4

947.26 MB
 

tracker

leech seeds
 

Torrent description

******************************Screenshots:********************

http://picserver4u.com/0871.html

http://picserver4u.com/0872.html

http://picserver4u.com/0873.html

http://picserver4u.com/0874.html

http://picserver4u.com/0875.html

****************************************************************

General
Complete name : Shattered.2017.HDRip.XviD.AC3.mp4
Format : MPEG-4
Format profile : Base Media
Codec ID : isom (isom/iso2/avc1/mp41)
File size : 947 MiB
Duration : 1 h 30 min
Overall bit rate : 1 460 kb/s
Writing application : Lavf57.56.101

Video
ID : 1
Format : AVC
Format/Info : Advanced Video Codec
Format profile : [emailprotected]
Format settings : CABAC / 4 Ref Frames
Format settings, CABAC : Yes
Format settings, RefFrames : 4 frames
Codec ID : avc1
Codec ID/Info : Advanced Video Coding
Duration : 1 h 30 min
Bit rate : 1 200 kb/s
Width : 720 pixels
Height : 384 pixels
Display aspect ratio : 1.85:1
Frame rate mode : Constant
Frame rate : 23.976 (23976/1000) FPS
Color space : YUV
Chroma subsampling : 4:2:0
Bit depth : 8 bits
Scan type : Progressive
Bits/(Pixel*Frame) : 0.181
Stream size : 778 MiB (82%)

Audio
ID : 2
Format : AC-3
Format/Info : Audio Coding 3
Codec ID : ac-3
Duration : 1 h 30 min
Bit rate mode : Constant
Bit rate : 256 kb/s
Channel(s) : 6 channels
Channel positions : Front: L C R, Side: L R, LFE
Sampling rate : 48.0 kHz
Frame rate : 31.250 FPS (1536 SPF)
Bit depth : 16 bits
Compression mode : Lossy
Stream size : 166 MiB (18%)
Service kind : Complete Main
Default : Yes
Alternate group : 1

related torrents

Torrent name

health leech seeds Size
 


comments (0)

Main Menu

 

script data-cfasync="false" src="//d2ghscazvn398x.cloudfront.net/?cshgd=690275">